Oceans Apart Art and the Pacific with James Fox S01E01 Australia ...

  • Category TV
  • Type HD
  • Language English
  • Total size 2.1 GB
  • Uploaded By ElsonRoa
  • Downloads 56
  • Last checked 2 hours ago
  • Date uploaded 4 months ago
  • Seeders 0
  • Leechers 2

Infohash : C358059E06CC088602E400A0090BA0B9BCAD78F0

Oceans Apart Art and the Pacific with James Fox S01E01 Australia (1280x720p HD, 50fps, soft Eng subs)

James Fox tells the story of Australia's indigenous culture, the oldest continuous culture anywhere in the world, and the disaster of its contact with the West.

He traces how Aboriginal peoples were almost destroyed by the impact of European colonization, but held on to their art to survive, to flourish and ultimately, to share their culture with the world.

James Fox begins by exploring the ancient rock art of Arnhem Land, Northern Australia, depicting fish and animals in an 'x-ray' style developed over 8000 years. The arrival of Captain Cook in Botany Bay, he argues, changed everything. Over the following centuries Aboriginal peoples were destroyed or marginalized as the new nation of Australia developed. Yet, in the 20th century, through works such as the watercolour landscapes of Albert Namatjira or the dot painting style of the Western desert, art has enabled Aboriginal people to re-imagine an Australia of their own.

Australia might long have been colonised but now, James Fox argues, Aboriginal people are recolonising it with their imaginations.

First broadcast: 10 September 2018
Duration: 1 hour

Torrent dead? Request reseed at demonoid.pw, ecavideos.rocks or katcr.co - or ask at [email protected]



Media info:-
General
Format : MPEG-4
Format profile : Base Media
Codec ID : isom (isom/iso2/avc1/mp41)
File size : 2.08 GiB
Duration : 58mn 49s
Overall bit rate mode : Variable
Overall bit rate : 5 074 Kbps
Writing application : Lavf57.83.100

Video
ID : 1
Format : AVC
Format/Info : Advanced Video Codec
Format profile : [email protected]
Format settings, CABAC : Yes
Format settings, ReFrames : 4 frames
Codec ID : avc1
Codec ID/Info : Advanced Video Coding
Duration : 58mn 49s
Bit rate : 4 749 Kbps
Width : 1 280 pixels
Height : 720 pixels
Display aspect ratio : 16:9
Frame rate mode : Constant
Frame rate : 50.000 fps
Color space : YUV
Chroma subsampling : 4:2:0
Bit depth : 8 bits
Scan type : Progressive
Bits/(Pixel*Frame) : 0.103
Stream size : 1.95 GiB (94%)
Encoded date : UTC 1904-01-01 00:00:00
Tagged date : UTC 1904-01-01 00:00:00
Color range : Limited
Color primaries : BT.709
Transfer characteristics : BT.709
Matrix coefficients : BT.709

Audio
ID : 2
Format : AAC
Format/Info : Advanced Audio Codec
Format profile : LC
Codec ID : 40
Duration : 58mn 48s
Bit rate mode : Variable
Bit rate : 320 Kbps
Channel(s) : 2 channels
Channel positions : Front: L R
Sampling rate : 48.0 KHz
Frame rate : 46.875 fps (1024 spf)
Compression mode : Lossy
Stream size : 134 MiB (6%)

Files:

Oceans Apart Art and the Pacific with James Fox S01E01 Australia
  • About this torrent.txt (2.5 KB)
  • If this torrent is dead.txt (0.1 KB)
  • Oceans Apart Art and the Pacific with James Fox S01E01 Australia.jpg (1.0 MB)
  • Oceans Apart Art and the Pacific with James Fox S01E01 Australia.mp4 (2.1 GB)
  • Oceans Apart Art and the Pacific with James Fox S01E01 Australia.srt (106.0 KB)
  • Torrent Downloaded From ecavideos.rocks.txt (0.0 KB)
  • Torrent Downloaded From Katcr.co - Kickasstorrents.txt (0.1 KB)
  • Torrent_downloaded_from_Demonoid_-_www.demonoid.pw_.txt (0.1 KB)

Comments

Code:

  • udp://tracker.leechers-paradise.org:6969/announce
  • udp://tracker.coppersurfer.tk:6969/announce
  • udp://tracker.opentrackr.org:1337/announce
  • udp://tracker.zer0day.to:1337/announce
  • udp://eddie4.nl:6969/announce
  • udp://inferno.demonoid.pw:3391/announce
SitemapGarage for building cars. Lego Cars Compilation | ', CENTER);" onmouseout="return nd();">the bold and the beautiful s32e105 720p web x264 w4f[eztv] mkv torrent icb torrent | Nevhodné Mob Psycho 100 II | Front de lest | Скачать